Лазарев влюблённые летать должны Mp3 | Legendado | Channing TatumHinterland | Tập 7 Sengoku Night Blood | Casual (1)
 


 

Filecrypt zeigt vereinzelt Files als "n/a". Die Downloads sind trotzdem komplett.

DNS SERVER AENDERNum der staatlichen Zensur zu umgehen. Sollten wir von eurem Provider geseprrt werden, nutzt den TOR BROWSER oder ändert euren DNS SERVER.

Filmwünsche können bei uns im Forum abgegeben werden

Wir Speichern Nicht




 
 
 
Top Releases
Star.Wars.Episode.VIII.Die.l...
Skyscraper.2018.German.720p....
Skyscraper.2018.German.DL.10...
Zoe.2018.German.DL.1080p.Blu...
Zoe.2018.GERMAN.720p.BluRay....
Zoe.2018.MULTi.COMPLETE.BLUR...
Oceans.8.2018.DUAL.COMPLETE....
Oceans.8.2018.German.DL.1080...
Meg.German.DL.AC3.Dubbed.720...
Meg.German.DL.AC3.Dubbed.108...

Cinedubs
Sicario.2.German.DL.AC3.Dubb...
Sicario.2.German.DL.AC3.Dubb...
Hotel.Artemis.German.DL.AC3....
Hotel.Artemis.German.DL.AC3....
Mission.Impossible.Fallout.2...
Mission.Impossible.Fallout.2...
BlacKkKlansman.2018.German.A...
BlacKkKlansman.2018.German.A...
Mandy.2018.German.AC3MD.DL.7...
Mandy.2018.German.AC3MD.DL.1...

Neuerscheinungen 2017-18
Mission.Yeti.Die.Abenteuer.v...
Mission.Yeti.Die.Abenteuer.v...
S.W.A.T.Unter.Verdacht.2017....
Terminal.Rache.war.nie.schoe...
Terminal.Rache.war.nie.schoe...
In.Darkness.2018.German.AC3D...
In.Darkness.2018.German.AC3D...
Papst.Franziskus.Ein.Mann.se...
Das.Leben.Ein.Sechserpack.19...
Skyscraper.2018.MULTi.COMPLE...

XXX
AuntJudys.18.10.29.Luba.Gets...
ATKGirlfriends.18.10.28.Emil...
AbbyWinters.18.10.31.Danai.A...
AdultAuditions.E260.Gina.Pre...
BarbaraBieberOfficial.18.08....
BarbaraBieberOfficial.18.08....
Analized.18.10.29.Jessica.Re...
BarbaraBieberOfficial.18.08....
ArchAngel.18.10.31.Carmen.Va...
1000Facials.18.10.29.Britt.J...
AllOver30.18.10.30.Diana.V.M...
AnalTeenAngels.18.10.30.Bell...
Anilos.18.10.30.CJ.Bridge.Li...
AllGirlMassage.18.10.29.Silv...
Babes.18.10.29.Ember.Snow.Su...
AbbyWinters.18.10.30.Olga.V....
AssTraffic.18.10.31.Vyvan.Hi...
ALSScan.18.10.31.Sabina.Roug...
ATKHairy.18.10.28.Alexandra....
BarbaraBieberOfficial.18.08....

3D
Die.Unglaublichen.2.3D.2018....
Die.Unglaublichen.2.2018.3D....
Die.Unglaublichen.2.2018.3D....
Sharknado.6.The.Last.One.3D....
Deep.Kleine.Helden.der.Tiefs...
Deep.3D.2017.MULTI.COMPLETE....
Detective.Dee.und.die.Legend...
Detective.Dee.und.die.Legend...
Skyscraper.3D.German.DL.AC3....
Ant-Man.and.the.Wasp.2018.3D...
Jurassic.World.Das.gefallene...
Jurassic.World.Das.gefallene...
Best.of.3D.vol.10.-.12.GERMA...
Die.Biene.Maja.2.Die.Honigsp...
Sharknado.6.The.Last.One.3D....

Old_Stuff
Species.IV.Das.Erwachen.2007...
Species.IV.Das.Erwachen.2007...
Hotel.Transsilvanien.2012.Ge...
The.Dead.2010.German.DL.1080...
The.Dead.2.India.2013.German...
Britney.Spears.Live.The.Femm...
Buffy.The.Vampire.Slayer.199...
IMAX.Ride.Around.The.World.2...
Schimanski.-.Duisburg.Ruhror...
Akte.X.S02.German.DTS.DL.108...
How.I.Met.Your.Mother.S02.Ge...
Akte.X.S01.German.DTS.DL.108...
Den.Himmel.gibts.echt.DL.108...
Vikings.S02.German.DL.1080p....
Be.Kind.Rewind.Abgedreht.200...

Filme
Undercover.In.Too.Deep.1999....
Moulin.Rouge.1952.German.AC3...
S.W.A.T.Unter.Verdacht.2017....
Star.Wars.Episode.V.Das.Impe...
Das.Leben.Ein.Sechserpack.19...
Constantine.City.of.Demons.2...
Gesetz.der.Rache.German.2009...
Gesetz.der.Rache.German.2009...
The.Good.Doctor.S02.German.D...
The.Good.Doctor.S02.German.D...
Die.Simpsons.S29.GERMAN.DUBB...
Riverdale.US.S03.GERMAN.DL.1...
Riverdale.US.S03.GERMAN.DL.7...
The.Walking.Dead.S08.German....
The.Walking.Dead.S08.German....
Young.Sheldon.S01.GERMAN.DUB...
Young.Sheldon.S01.GERMAN.DUB...
The.Last.Ship.S05.GERMAN.DUB...
The.Last.Ship.S05.GERMAN.DUB...
Hobo.with.a.Shotgun.2011.Ger...
Heiter.bis.wolkig.German.108...
The.Square.Ein.toedlicher.Pl...
The.Stendhal.Syndrome.German...
The.Straight.Story.1999.Germ...

 
 
S.W.A.T.Unter.Verdacht.2017.German.DTS.DL.720p.BluRay.x264-LeetHD

Jahr: 2017
Genre: Action
Sprache: Deutsch DTS | Englisch DTS
Laufzeit: 1h 29mn
Bitrate: 6 361 Kbps
Format: MKV
Größe: 3.95 GiB
Release:

Beschreibung:
Die Drogenvollzugsbehörde D.E.A. und die Spezialeinheit Special Weapons And Tactics führen eine Razzia durch, die gnadenlos aus dem Ruder läuft, es kommt zur Schießerei. Dabei nimmt S.W.A.T.-Agent Travis (Sam Jaeger) einen mysteriösen Mann (Michael Jai White) fest, der wegen einer Tätowierung auf dem Rücken nur als „Skorpion“ bekannt ist. Zurück im Hauptquartier nähern sich kurze Zeit später mehrere Angriffskommandos dem Gelände und eröffnen schließlich das Feuer. Die Angreifer schrecken offenbar vor nichts zurück, um den Gefangenen zu befreien. Als Travis und seine Kollegin Ellen (Adrianne Palicki) dann herausfinden, dass hinter dem Skorpion ein äußerst fähiger Black-Ops-Soldat steckt, liegt es an dem Team der Spezialeinheit, das milliardenschwere Geheimnis zu bewahren…


Complete name                            : lhd-swat-720p.mkv
Format                                   : Matroska
Format version                           : Version 4 / Version 2
File size                                : 3.95 GiB
Duration                                 : 1h 29mn
Overall bit rate                         : 6 361 Kbps
Encoded date                             : UTC 2017-09-11 16:24:09
Writing application                      : mkvmerge v9.7.1 ('Pandemonium') 64bit
Writing library                          : libebml v1.3.4 + libmatroska v1.4.5
DURATION                                 : 01:29:00.252000000
NUMBER_OF_FRAMES                         : 128038
NUMBER_OF_BYTES                          : 2220749282
_STATISTICS_WRITING_APP                  : mkvmerge v9.7.1 ('Pandemonium') 64bit
_STATISTICS_WRITING_DATE_UTC             : 2017-09-11 16:24:09
_STATISTICS_TAGS                         : BPS DURATION NUMBER_OF_FRAMES NUMBER_OF_BYTES

Video
ID                                       : 1
Format                                   : AVC
Format/Info                              : Advanced Video Codec
Format profile                           : High@L4.1
Format settings, CABAC                   : Yes
Format settings, ReFrames                : 5 frames
Codec ID                                 : V_MPEG4/ISO/AVC
Duration                                 : 1h 29mn
Bit rate                                 : 3 216 Kbps
Width                                    : 1 280 pixels
Height                                   : 720 pixels
Display aspect ratio                     : 16:9
Frame rate mode                          : Constant
Frame rate                               : 23.976 fps
Color space                              : YUV
Chroma subsampling                       : 4:2:0
Bit depth                                : 8 bits
Scan type                                : Progressive
Bits/(Pixel*Frame)                       : 0.146
Stream size                              : 2.00 GiB (51%)
Writing library                          : x264 core 152 r2851 ba24899
Encoding settings                        : cabac=1 / ref=5 / deblock=1:-1:-1 / analyse=0x3:0x113 / me=umh / subme=8 / psy=1 / psy_rd=0.99:0.01 / mixed_ref=1 / me_range=16 / chroma_me=1 / trellis=1 / 8x8dct=1 / cqm=0 / deadzone=21,11 / fast_pskip=0 / chroma_qp_offset=-3 / threads=12 / lookahead_threads=2 / sliced_threads=0 / nr=0 / decimate=1 / interlaced=0 / bluray_compat=0 / constrained_intra=0 / bframes=3 / b_pyramid=2 / b_adapt=2 / b_bias=0 / direct=3 / weightb=1 / open_gop=0 / weightp=2 / keyint=240 / keyint_min=23 / scenecut=40 / intra_refresh=0 / rc_lookahead=40 / rc=crf / mbtree=1 / crf=17.0 / qcomp=0.60 / qpmin=0 / qpmax=69 / qpstep=4 / vbv_maxrate=62500 / vbv_bufsize=78125 / crf_max=0.0 / nal_hrd=none / filler=0 / ip_ratio=1.40 / aq=1:1.00
Default                                  : Yes
Forced                                   : No

Audio #1
ID                                       : 2
Format                                   : DTS
Format/Info                              : Digital Theater Systems
Mode                                     : 16
Format settings, Endianness              : Big
Codec ID                                 : A_DTS
Duration                                 : 1h 29mn
Bit rate mode                            : Constant
Bit rate                                 : 1 509 Kbps
Channel(s)                               : 6 channels
Channel positions                        : Front: L C R, Side: L R, LFE
Sampling rate                            : 48.0 KHz
Bit depth                                : 24 bits
Compression mode                         : Lossy
Stream size                              : 961 MiB (24%)
Language                                 : German
Default                                  : Yes
Forced                                   : No

Audio #2
ID                                       : 3
Format                                   : DTS
Format/Info                              : Digital Theater Systems
Mode                                     : 16
Format settings, Endianness              : Big
Codec ID                                 : A_DTS
Duration                                 : 1h 29mn
Bit rate mode                            : Constant
Bit rate                                 : 1 509 Kbps
Channel(s)                               : 6 channels
Channel positions                        : Front: L C R, Side: L R, LFE
Sampling rate                            : 48.0 KHz
Bit depth                                : 24 bits
Compression mode                         : Lossy
Stream size                              : 961 MiB (24%)
Language                                 : English
Default                                  : No
Forced                                   : No

Text
ID                                       : 4
Format                                   : PGS
Muxing mode                              : zlib
Codec ID                                 : S_HDMV/PGS
Codec ID/Info                            : The same subtitle format used on BDs/HD-DVDs
Title                                    : complete
Language                                 : German
Default                                  : No
Forced                                   : No


Download:
Share Online Share OnlineShare OnlineShare Online
 

Kommentare